<?xml version="1.0" standalone="no"?>
<!DOCTYPE svg PUBLIC "-//W3C//DTD SVG 1.1//EN" "http://www.w3.org/Graphics/SVG/1.1/DTD/svg11.dtd" >
<svg>
<metadata>
Created by FontForge 20110222 at Mon Mar  7 13:18:28 2011
 By www-data
Copyright (c) 2009 by . All rights reserved.
</metadata>
<defs>
<font id="Insolent" horiz-adv-x="953" >
  <font-face 
    font-family="Insolent"
    font-weight="400"
    font-stretch="normal"
    units-per-em="1000"
    panose-1="2 0 0 0 0 0 0 0 0 0"
    ascent="750"
    descent="-250"
    x-height="500"
    cap-height="700"
    bbox="9 -271 1231 1037"
    underline-thickness="50"
    underline-position="-50"
    stemh="159"
    stemv="158"
    unicode-range="U+0020-2122"
  />
    <missing-glyph />
    <glyph glyph-name="space" unicode=" " horiz-adv-x="453" 
 />
    <glyph glyph-name="H" unicode="H" horiz-adv-x="819" 
d="M515 0v278h-211v-278h-274v700h274v-263h211v263h274v-700h-274z" />
    <glyph glyph-name="I" unicode="I" horiz-adv-x="334" 
d="M30 0v700h274v-700h-274z" />
    <glyph glyph-name="J" unicode="J" horiz-adv-x="497" 
d="M31 -2l-1 156c30 0 50 1 69 1c52 0 94 48 94 136v409h274v-436c0 -239 -178 -267 -392 -267c-12 0 -28 0 -44 1z" />
    <glyph glyph-name="K" unicode="K" horiz-adv-x="847" 
d="M536 0l-214 277h-18v-277h-274v700h274v-223l204 223h274l-282 -303l332 -397h-296z" />
    <glyph glyph-name="L" unicode="L" horiz-adv-x="645" 
d="M30 0v700h274v-514h311v-186h-585z" />
    <glyph glyph-name="M" unicode="M" horiz-adv-x="1069" 
d="M765 0v304l-121 -304h-217l-123 309v-309h-274v700h324l181 -457l182 457h322v-700h-274z" />
    <glyph glyph-name="N" unicode="N" horiz-adv-x="869" 
d="M521 0l-217 360v-360h-274v700h314l221 -367v367h274v-700h-318z" />
    <glyph glyph-name="P" unicode="P" horiz-adv-x="736" 
d="M30 0v700h385c195 0 291 -56 291 -237s-109 -246 -317 -246h-85v-217h-274zM370 562h-66v-203h55c27 3 84 25 84 92c0 90 -34 106 -73 111z" />
    <glyph glyph-name="R" unicode="R" horiz-adv-x="776" 
d="M489 0l-117 236h-68v-236h-274v700h385c195 0 307 -46 307 -227c0 -98 -37 -160 -104 -195l145 -278h-274zM370 562l-66 1v-187h55c27 3 100 18 100 85c0 90 -50 96 -89 101z" />
    <glyph glyph-name="T" unicode="T" horiz-adv-x="754" 
d="M30 541v159h694v-159h-210v-541h-274v541h-210z" />
    <glyph glyph-name="A" unicode="A" 
d="M672 700l266 -700h-274l-51 133h-274l-50 -133h-274l266 700h391zM553 292l-77 201l-76 -201h153z" />
    <glyph glyph-name="V" unicode="V" horiz-adv-x="913" 
d="M898 700l-246 -700h-391l-246 700h274l167 -477l168 477h274z" />
    <glyph glyph-name="O" unicode="O" horiz-adv-x="846" 
d="M816 349c0 -237 -182 -357 -394 -357c-214 0 -392 118 -392 357c0 234 175 361 392 361c223 0 394 -127 394 -361zM305 349c0 -75 21 -179 117 -179c106 0 120 104 120 179c0 65 -19 183 -120 183c-99 0 -117 -118 -117 -183z" />
    <glyph glyph-name="Q" unicode="Q" horiz-adv-x="855" 
d="M574 -67l-63 67c-29 -5 -59 -8 -89 -8c-214 0 -392 118 -392 357c0 234 175 361 392 361c223 0 394 -127 394 -361c0 -117 -44 -206 -115 -265l147 -151h-274zM305 349c0 -75 21 -179 117 -179c106 0 120 104 120 179c0 65 -19 183 -120 183c-99 0 -117 -118 -117 -183z
" />
    <glyph glyph-name="C" unicode="C" horiz-adv-x="729" 
d="M699 193v-159c-59 -28 -204 -42 -277 -42c-214 0 -392 118 -392 357c0 234 175 361 392 361c65 0 210 -11 263 -32v-145c-41 8 -159 13 -192 13c-105 0 -188 -61 -188 -197c0 -130 72 -186 173 -186c44 0 164 10 221 30z" />
    <glyph glyph-name="G" unicode="G" horiz-adv-x="762" 
d="M732 364v-330c-59 -28 -237 -42 -310 -42c-214 0 -392 118 -392 357c0 234 175 361 392 361c65 0 229 -23 282 -44v-145c-41 8 -178 25 -211 25c-123 0 -188 -61 -188 -197c0 -128 76 -185 189 -186v201h238z" />
    <glyph glyph-name="U" unicode="U" horiz-adv-x="805" 
d="M501 349v351h274v-351c0 -237 -162 -357 -374 -357c-213 0 -371 117 -371 357v351h274v-351c0 -75 1 -179 97 -179c99 0 100 91 100 179z" />
    <glyph glyph-name="W" unicode="W" horiz-adv-x="1246" 
d="M748 0l-127 408l-127 -408h-303l-176 700h274l97 -388l121 388h228l122 -394l100 394h274l-177 -700h-306z" />
    <glyph glyph-name="Z" unicode="Z" horiz-adv-x="732" 
d="M30 541v159h659v-126l-336 -415h349v-159h-672v125l338 416h-338z" />
    <glyph glyph-name="X" unicode="X" horiz-adv-x="782" 
d="M767 700l-239 -350l239 -350h-274l-100 174l-104 -174h-274l239 350l-239 350h274l102 -165l102 165h274z" />
    <glyph glyph-name="Y" unicode="Y" horiz-adv-x="786" 
d="M256 0v286l-241 414h254l125 -236l123 236h254l-241 -414v-286h-274z" />
    <glyph glyph-name="S" unicode="S" horiz-adv-x="693" 
d="M510 425c127 -38 160 -131 157 -225c-5 -160 -180 -210 -353 -210c-31 0 -63 2 -94 5c-64 6 -138 22 -184 42l5 178c71 -30 158 -48 242 -48c58 0 119 4 121 36c3 49 -150 85 -200 97c-98 24 -182 68 -178 205c5 160 151 201 326 201c86 0 168 -4 250 -43l-4 -156
c-36 22 -95 42 -158 42c-74 0 -150 -4 -151 -44c-1 -30 116 -48 221 -80z" />
    <glyph glyph-name="E" unicode="E" horiz-adv-x="683" 
d="M30 0v700h623v-159h-349v-104h288v-159h-288v-119h349v-159h-623z" />
    <glyph glyph-name="F" unicode="F" horiz-adv-x="641" 
d="M30 0v700h581v-159h-307v-141h246v-159h-246v-241h-274z" />
    <glyph glyph-name="D" unicode="D" horiz-adv-x="841" 
d="M30 0v700h389c217 0 392 -117 392 -351c0 -239 -178 -349 -392 -349h-389zM348 546h-44v-383h71c101 0 161 56 161 186c0 136 -65 197 -188 197z" />
    <glyph glyph-name="B" unicode="B" horiz-adv-x="807" 
d="M30 0v700h385c195 0 321 -58 321 -201c0 -56 -20 -100 -75 -128c68 -16 116 -90 116 -177c0 -156 -125 -194 -333 -194h-414zM441 280h-137v-131h29c27 0 52 1 98 1c33 0 79 23 79 62c0 45 -28 68 -69 68zM370 561h-66v-141h49c50 0 120 6 120 67c0 74 -64 69 -103 74z
" />
    <glyph glyph-name="bracketleft" unicode="[" horiz-adv-x="352" 
d="M30 -100v850h292v-88h-107v-674h107v-88h-292z" />
    <glyph glyph-name="bracketright" unicode="]" horiz-adv-x="352" 
d="M322 750v-850h-292v88h107v674h-107v88h292z" />
    <glyph glyph-name="slash" unicode="/" horiz-adv-x="407" 
d="M392 700l-218 -700h-159l218 700h159z" />
    <glyph glyph-name="backslash" unicode="\" horiz-adv-x="409" 
d="M233 0l-218 700h159l218 -700h-159z" />
    <glyph glyph-name="asciicircum" unicode="^" horiz-adv-x="600" 
d="M417 389l-117 201l-117 -201h-153l181 311h178l181 -311h-153z" />
    <glyph glyph-name="underscore" unicode="_" horiz-adv-x="724" 
d="M30 -127v88h664v-88h-664z" />
    <glyph glyph-name="grave" unicode="`" horiz-adv-x="356" 
d="M191 494l-161 206h202l94 -206h-135z" />
    <glyph glyph-name="Egrave" unicode="&#xc8;" horiz-adv-x="683" 
d="M30 0v700h623v-159h-349v-104h288v-159h-288v-119h349v-159h-623zM298 749l-161 206h202l94 -206h-135z" />
    <glyph glyph-name="acute" unicode="&#xb4;" horiz-adv-x="360" 
d="M330 700l-165 -206h-135l98 206h202z" />
    <glyph glyph-name="Eacute" unicode="&#xc9;" horiz-adv-x="683" 
d="M30 0v700h623v-159h-349v-104h288v-159h-288v-119h349v-159h-623zM561 955l-165 -206h-135l98 206h202z" />
    <glyph glyph-name="circumflex" unicode="&#x2c6;" horiz-adv-x="523" 
d="M335 553l-74 74l-73 -74h-158l146 147h171l146 -147h-158z" />
    <glyph glyph-name="Ecircumflex" unicode="&#xca;" horiz-adv-x="683" 
d="M30 0v700h623v-159h-349v-104h288v-159h-288v-119h349v-159h-623zM419 749l-74 74l-73 -74h-158l146 147h171l146 -147h-158z" />
    <glyph glyph-name="period" unicode="." horiz-adv-x="278" 
d="M30 0v192h218v-192h-218z" />
    <glyph glyph-name="colon" unicode=":" horiz-adv-x="278" 
d="M30 0v192h218v-192h-218zM30 308v192h218v-192h-218z" />
    <glyph glyph-name="semicolon" unicode=";" horiz-adv-x="313" 
d="M65 109v192h218v-192h-218zM278 32l-104 -253h-144l50 253h198z" />
    <glyph glyph-name="hyphen" unicode="-" horiz-adv-x="479" 
d="M30 217v160h419v-160h-419z" />
    <glyph glyph-name="equal" unicode="=" horiz-adv-x="492" 
d="M30 321v160h432v-160h-432zM30 86v160h432v-160h-432z" />
    <glyph glyph-name="endash" unicode="&#x2013;" horiz-adv-x="655" 
d="M30 217v160h595v-160h-595z" />
    <glyph glyph-name="emdash" unicode="&#x2014;" horiz-adv-x="836" 
d="M30 217v160h776v-160h-776z" />
    <glyph glyph-name="dieresis" unicode="&#xa8;" horiz-adv-x="492" 
d="M30 602v147h166v-147h-166zM295 602v147h167v-147h-167z" />
    <glyph glyph-name="Edieresis" unicode="&#xcb;" horiz-adv-x="683" 
d="M30 0v700h623v-159h-349v-104h288v-159h-288v-119h349v-159h-623zM130 770v147h166v-147h-166zM395 770v147h167v-147h-167z" />
    <glyph glyph-name="Aring" unicode="&#xc5;" 
d="M672 700l266 -700h-274l-51 133h-274l-50 -133h-274l266 700h391zM553 292l-77 201l-76 -201h153zM324 883c0 85 69 154 153 154c85 0 154 -69 154 -154c0 -84 -69 -153 -154 -153c-84 0 -153 69 -153 153zM419 883c0 -32 26 -58 58 -58c31 0 57 26 57 58
c0 31 -26 57 -57 57c-32 0 -58 -26 -58 -57z" />
    <glyph glyph-name="Zcaron" unicode="&#x17d;" horiz-adv-x="732" 
d="M30 541v159h659v-126l-336 -415h349v-159h-672v125l338 416h-338zM279 896l78 -79l79 79h153l-146 -147h-171l-146 147h153z" />
    <glyph glyph-name="quoteright" unicode="&#x2019;" horiz-adv-x="298" 
d="M273 700l-104 -253h-144l50 253h198z" />
    <glyph glyph-name="quoteleft" unicode="&#x2018;" horiz-adv-x="298" 
d="M25 447l104 253h144l-50 -253h-198z" />
    <glyph glyph-name="quotedblleft" unicode="&#x201c;" horiz-adv-x="568" 
d="M25 447l163 253h144l-109 -253h-198zM295 447l104 253h144l-50 -253h-198z" />
    <glyph glyph-name="quotedblright" unicode="&#x201d;" horiz-adv-x="568" 
d="M543 700l-163 -253h-144l109 253h198zM273 700l-104 -253h-144l50 253h198z" />
    <glyph glyph-name="percent" unicode="%" horiz-adv-x="855" 
d="M670 700l-370 -700h-121l370 700h121zM30 537c0 95 77 172 171 172s171 -77 171 -172c0 -93 -77 -170 -171 -170s-171 77 -171 170zM136 537c0 -35 29 -64 65 -64c34 0 63 29 63 64s-29 63 -63 63c-36 0 -65 -28 -65 -63zM483 161c0 95 77 172 171 172s171 -77 171 -172
c0 -93 -77 -170 -171 -170s-171 77 -171 170zM589 161c0 -35 29 -64 65 -64c34 0 63 29 63 64s-29 63 -63 63c-36 0 -65 -28 -65 -63z" />
    <glyph glyph-name="zero" unicode="0" horiz-adv-x="746" 
d="M721 349c0 -216 -137 -357 -349 -357c-214 0 -347 147 -347 357c0 215 130 361 347 361c223 0 349 -141 349 -361zM372 532c-75 0 -97 -90 -97 -180c0 -91 23 -182 97 -182c77 0 99 89 99 178c0 92 -24 184 -99 184z" />
    <glyph glyph-name="one" unicode="1" horiz-adv-x="509" 
d="M15 583l162 117h302v-700h-274v527l-104 -69z" />
    <glyph glyph-name="a" unicode="a" horiz-adv-x="650" 
d="M620 0h-274c0 1 0 2 1 4c-26 -7 -17 -11 -46 -11c-149 0 -276 72 -276 257c0 196 115 260 263 260c35 0 30 -4 59 -10h273v-500zM371 149c3 32 5 64 5 96c0 41 -3 82 -8 124c-74 -7 -83 -58 -83 -119c0 -57 24 -102 74 -102c4 0 8 0 12 1z" />
    <glyph glyph-name="d" unicode="d" horiz-adv-x="698" 
d="M288 510c36 0 71 -4 106 -11v251h274v-750h-274v5c-30 -7 -61 -12 -93 -12c-149 0 -276 72 -276 257c0 196 115 260 263 260zM300 250c0 -87 28 -116 100 -116c8 43 12 85 12 128c0 34 -3 69 -9 103c-62 -12 -103 -48 -103 -115z" />
    <glyph glyph-name="b" unicode="b" horiz-adv-x="698" 
d="M304 750v-251c34 7 70 11 106 11c148 0 263 -64 263 -260c0 -185 -127 -257 -276 -257c-32 0 -63 5 -93 12v-5h-274v750h274zM398 250c0 67 -41 103 -103 115c-6 -34 -9 -69 -9 -103c0 -43 4 -85 12 -128h4c68 0 96 29 96 116z" />
    <glyph glyph-name="c" unicode="c" horiz-adv-x="557" 
d="M532 151v-149c-52 -7 -79 -10 -115 -10c-169 0 -392 19 -392 258c0 200 178 258 340 258c61 0 119 -8 165 -20v-139c-26 10 -52 14 -77 14c-85 0 -153 -52 -153 -113c0 -74 60 -105 161 -105c19 0 32 2 71 6z" />
    <glyph glyph-name="e" unicode="e" horiz-adv-x="631" 
d="M578 153v-125c-66 -17 -169 -36 -260 -36c-97 0 -293 53 -293 258c0 214 175 260 315 260c139 0 266 -51 266 -243v-81h-328c0 -43 60 -60 102 -60c78 0 181 21 198 27zM330 359c-24 0 -51 -2 -52 -64h102c-3 31 -15 64 -50 64z" />
    <glyph glyph-name="o" unicode="o" horiz-adv-x="728" 
d="M364 -8c-100 0 -339 48 -339 258c0 234 249 260 340 260c124 0 338 -44 338 -260c0 -210 -219 -258 -339 -258zM364 164c44 0 64 22 64 86c0 58 -12 93 -64 93c-48 0 -64 -35 -64 -93c0 -64 24 -86 64 -86z" />
    <glyph glyph-name="f" unicode="f" horiz-adv-x="536" 
d="M25 341v159h75c3 186 144 255 286 255c43 0 86 -11 125 -21v-153c-15 6 -31 9 -47 9c-46 0 -88 -27 -90 -90h112v-159h-112v-341h-274v341h-75z" />
    <glyph glyph-name="h" unicode="h" horiz-adv-x="719" 
d="M417 0v232c0 46 -14 72 -54 72c-37 0 -59 -31 -59 -73v-231h-274v750h274v-306c60 45 118 65 169 65c127 0 216 -121 216 -267v-242h-272z" />
    <glyph glyph-name="i" unicode="i" horiz-adv-x="344" 
d="M309 500v-500h-274v500h274zM30 579v171h284v-171h-284z" />
    <glyph glyph-name="k" unicode="k" horiz-adv-x="763" 
d="M304 750v-434l151 184h274l-248 -228l267 -272h-292l-152 220v-220h-274v750h274z" />
    <glyph glyph-name="l" unicode="l" horiz-adv-x="334" 
d="M304 750v-750h-274v750h274z" />
    <glyph glyph-name="m" unicode="m" horiz-adv-x="1118" 
d="M709 455c59 36 116 53 167 53c123 0 212 -99 212 -266v-242h-272v232c0 46 -17 72 -57 72c-44 0 -59 -30 -59 -72v-232h-272v232c0 46 -21 72 -61 72c-37 0 -63 -31 -63 -73v-231h-274v500h274v-56c64 44 124 64 178 64c67 0 125 -32 167 -90z" />
    <glyph glyph-name="n" unicode="n" horiz-adv-x="755" 
d="M453 0v232c0 46 -26 72 -66 72c-37 0 -83 -31 -83 -73v-231h-274v500h274v-56c65 44 130 65 189 65c131 0 232 -100 232 -267v-242h-272z" />
    <glyph glyph-name="r" unicode="r" horiz-adv-x="519" 
d="M494 499v-154h-18c-28 0 -124 0 -172 -53v-292h-274v500h274v-25c39 16 84 26 133 26c19 0 38 -1 57 -2z" />
    <glyph glyph-name="u" unicode="u" horiz-adv-x="735" 
d="M302 500v-232c0 -46 30 -66 70 -66c37 0 59 25 59 67v231h274v-500h-274v34c-57 -30 -112 -43 -162 -43c-137 0 -239 102 -239 267v242h272z" />
    <glyph glyph-name="z" unicode="z" horiz-adv-x="633" 
d="M30 341v159h560v-126l-211 -215h224v-159h-573v125l212 216h-212z" />
    <glyph glyph-name="p" unicode="p" horiz-adv-x="698" 
d="M410 -10c-36 0 -72 4 -106 10v-250h-274v750h274v-6c30 8 61 13 93 13c149 0 276 -72 276 -257c0 -196 -115 -260 -263 -260zM300 366c-10 -43 -15 -85 -15 -127c0 -35 4 -70 10 -104c62 12 103 47 103 115c0 87 -30 116 -98 116z" />
    <glyph glyph-name="q" unicode="q" horiz-adv-x="698" 
d="M394 -250v250c-35 -6 -70 -10 -106 -10c-148 0 -263 64 -263 260c0 185 127 257 276 257c32 0 63 -5 93 -13v6h274v-750h-274zM300 250c0 -68 41 -103 103 -115c6 34 9 69 9 103c0 43 -4 85 -12 128c-72 0 -100 -29 -100 -116z" />
    <glyph glyph-name="g" unicode="g" horiz-adv-x="698" 
d="M92 -230v158c60 -18 125 -32 190 -32c44 0 112 13 112 45v59c-35 -6 -70 -10 -106 -10c-148 0 -263 64 -263 260c0 185 127 257 276 257c31 0 61 0 93 -19v12h274v-550c-10 -172 -193 -210 -347 -210c-31 0 -63 2 -94 5c-44 4 -93 13 -135 25zM300 250
c0 -68 41 -103 103 -115c6 34 9 69 9 103c0 43 -4 85 -12 128c-72 0 -100 -29 -100 -116z" />
    <glyph glyph-name="j" unicode="j" horiz-adv-x="455" 
d="M15 -258v154h19c44 0 112 21 112 53v551h274v-550c-1 -42 -15 -77 -36 -105c-59 -78 -184 -105 -311 -105c-19 0 -39 1 -58 2zM141 579v171h284v-171h-284z" />
    <glyph glyph-name="t" unicode="t" horiz-adv-x="545" 
d="M25 341v159h88v155h274v-155h99v-159h-99v-147c0 -33 42 -53 85 -53c17 0 34 3 48 9v-138c-46 -9 -98 -15 -148 -15c-133 0 -259 40 -259 166v178h-88z" />
    <glyph glyph-name="s" unicode="s" horiz-adv-x="531" 
d="M271 166c-42 47 -238 49 -238 193v12c7 92 121 140 247 140c64 0 131 -12 189 -38l-45 -142c-53 19 -96 25 -121 25c-17 0 -26 -3 -26 -7c4 -43 229 -32 229 -200c-8 -111 -126 -153 -249 -153c-88 0 -178 21 -232 54l33 148c103 -30 170 -44 199 -44c6 0 24 2 14 12z
" />
    <glyph glyph-name="v" unicode="v" horiz-adv-x="730" 
d="M497 0h-270l-212 500h254l94 -297l93 297h254z" />
    <glyph glyph-name="x" unicode="x" horiz-adv-x="730" 
d="M713 500l-206 -247l206 -253h-274l-72 120l-74 -120h-274l222 253l-222 247h274l74 -128l72 128h274z" />
    <glyph glyph-name="y" unicode="y" horiz-adv-x="679" 
d="M389 500h260v-531c-2 -63 -28 -112 -69 -148c-63 -56 -163 -81 -268 -81c-31 0 -63 2 -94 5c-44 4 -93 13 -135 25v158c60 -18 125 -32 190 -32c43 0 116 40 116 70v36c-37 -7 -79 -12 -117 -12c-148 0 -241 64 -241 260c0 7 -1 243 -1 250h253v-250c0 -36 8 -85 50 -85
c40 0 56 24 56 103v232z" />
    <glyph glyph-name="zcaron" unicode="&#x17e;" horiz-adv-x="633" 
d="M30 341v159h560v-126l-211 -215h224v-159h-573v125l212 216h-212zM240 700l78 -79l79 79h153l-146 -147h-171l-146 147h153z" />
    <glyph glyph-name="w" unicode="w" horiz-adv-x="1060" 
d="M467 0h-270l-182 500h254l64 -297l98 297h196l99 -297l63 297h254l-183 -500h-270l-62 262z" />
    <glyph glyph-name="quotesingle" unicode="'" horiz-adv-x="238" 
d="M208 700l-20 -253h-138l-20 253h178z" />
    <glyph glyph-name="quotedbl" unicode="&#x22;" horiz-adv-x="476" 
d="M208 700l-20 -253h-138l-20 253h178zM446 700l-20 -253h-138l-20 253h178z" />
    <glyph glyph-name="exclam" unicode="!" horiz-adv-x="344" 
d="M309 700v-429h-274v429h274zM30 0v171h284v-171h-284z" />
    <glyph glyph-name="numbersign" unicode="#" horiz-adv-x="632" 
d="M564 197h-98l-37 -197h-129l37 197h-115l-37 -197h-129l37 197h-63v105h83l18 94h-63v105h83l39 199h129l-39 -199h115l39 199h129l-39 -199h78v-105h-98l-18 -94h78v-105zM260 396l-18 -94h115l18 94h-115z" />
    <glyph glyph-name="bar" unicode="|" horiz-adv-x="219" 
d="M189 700v-822h-159v822h159z" />
    <glyph glyph-name="dollar" unicode="$" horiz-adv-x="642" 
d="M468 413c117 -34 149 -119 149 -200v-5c-5 -133 -135 -183 -277 -190v-82h-77v82c-16 1 -32 2 -48 4c-58 6 -126 20 -168 38v153c66 -27 145 -39 221 -39c53 0 108 8 109 37c1 44 -135 77 -184 89c-91 22 -168 62 -168 186c0 129 103 173 238 181v83h77v-81
c70 -1 136 -8 205 -39v-134l-10 3c-34 10 -123 36 -190 36c-45 0 -80 -12 -80 -49c0 -27 106 -44 203 -73z" />
    <glyph glyph-name="Acircumflex" unicode="&#xc2;" 
d="M672 700l266 -700h-274l-51 133h-274l-50 -133h-274l266 700h391zM553 292l-77 201l-76 -201h153zM539 763l-62 72l-62 -72h-133l123 144h144l123 -144h-133z" />
    <glyph glyph-name="ellipsis" unicode="&#x2026;" horiz-adv-x="970" 
d="M30 0v192h218v-192h-218zM376 0v192h218v-192h-218zM722 0v192h218v-192h-218z" />
    <glyph glyph-name="quotedblbase" unicode="&#x201e;" horiz-adv-x="558" 
d="M543 116l-163 -253h-144l109 253h198zM273 116l-104 -253h-144l50 253h198z" />
    <glyph glyph-name="quotesinglbase" unicode="&#x201a;" horiz-adv-x="298" 
d="M273 116l-104 -253h-144l50 253h198z" />
    <glyph glyph-name="bullet" unicode="&#x2022;" horiz-adv-x="413" 
d="M30 298c0 98 78 177 176 177s177 -79 177 -177s-79 -176 -177 -176s-176 78 -176 176z" />
    <glyph glyph-name="less" unicode="&#x3c;" horiz-adv-x="506" 
d="M476 393l-273 -93l273 -92v-178l-446 181v178l446 181v-177z" />
    <glyph glyph-name="greater" unicode="&#x3e;" horiz-adv-x="506" 
d="M303 300l-273 93v177l446 -181v-178l-446 -181v178z" />
    <glyph glyph-name="copyright" unicode="&#xa9;" horiz-adv-x="772" 
d="M25 350c0 199 162 361 361 361s361 -162 361 -361s-162 -361 -361 -361s-361 162 -361 361zM142 350c0 -135 109 -244 244 -244s244 109 244 244s-109 244 -244 244s-244 -109 -244 -244zM487 285l50 -71c-36 -21 -82 -32 -127 -32c-99 0 -197 53 -197 170
c0 110 93 172 189 172c47 0 95 -15 132 -47l-56 -51c-24 13 -46 19 -66 19c-57 0 -94 -46 -94 -95c0 -53 48 -81 101 -81c23 0 46 5 68 16z" />
    <glyph glyph-name="registered" unicode="&#xae;" horiz-adv-x="772" 
d="M25 350c0 199 162 361 361 361s361 -162 361 -361s-162 -361 -361 -361s-361 162 -361 361zM142 350c0 -135 109 -244 244 -244s244 109 244 244s-109 244 -244 244s-244 -109 -244 -244zM431 169l-32 110h-50v-110h-88v357h89c100 0 182 -21 182 -127
c0 -41 -18 -81 -51 -104l45 -126h-95zM349 439v-78c13 -2 26 -3 37 -3c35 0 55 10 55 33c0 32 -6 49 -69 49c-7 0 -15 -1 -23 -1z" />
    <glyph glyph-name="yen" unicode="&#xa5;" horiz-adv-x="786" 
d="M179 184v81h77v21l-241 414h254l125 -236l123 236h254l-241 -414v-21h81v-81h-81v-51h81v-81h-81v-52h-274v52h-77v81h77v51h-77z" />
    <glyph glyph-name="Scaron" unicode="&#x160;" horiz-adv-x="693" 
d="M510 425c127 -38 160 -131 157 -225c-5 -160 -180 -210 -353 -210c-31 0 -63 2 -94 5c-64 6 -138 22 -184 42l5 178c71 -30 158 -48 242 -48c58 0 119 4 121 36c3 49 -150 85 -200 97c-98 24 -182 68 -178 205c5 160 151 201 326 201c86 0 168 -4 250 -43l-4 -156
c-36 22 -95 42 -158 42c-74 0 -150 -4 -151 -44c-1 -30 116 -48 221 -80zM283 900l78 -79l79 79h153l-146 -147h-171l-146 147h153z" />
    <glyph glyph-name="scaron" unicode="&#x161;" horiz-adv-x="531" 
d="M271 166c-42 47 -238 49 -238 193v12c7 92 121 140 247 140c64 0 131 -12 189 -38l-45 -142c-53 19 -96 25 -121 25c-17 0 -26 -3 -26 -7c4 -43 229 -32 229 -200c-8 -111 -126 -153 -249 -153c-88 0 -178 21 -232 54l33 148c103 -30 170 -44 199 -44c6 0 24 2 14 12z
M207 680l68 -68l68 68h133l-127 -127h-148l-127 127h133z" />
    <glyph glyph-name="trademark" unicode="&#x2122;" horiz-adv-x="1063" 
d="M856 300v185l-35 -185h-167l-36 185v-185h-166v400h196l90 -237l90 237h205v-400h-177zM30 571v129h383v-129h-110v-271h-158v271h-115z" />
    <glyph glyph-name="braceleft" unicode="{" horiz-adv-x="339" 
d="M309 834v-105c-43 0 -52 -30 -52 -58v-27c0 -26 2 -81 2 -208c0 -94 -34 -112 -85 -117c49 -3 81 -20 81 -98v-244c0 -30 5 -64 52 -64v-107h-99c-47 0 -116 48 -116 158l11 201c0 65 -43 135 -64 135c-6 6 -9 12 -9 18s3 11 9 17c21 0 64 71 64 136l-11 205
c0 110 69 158 116 158h101z" />
    <glyph glyph-name="braceright" unicode="}" horiz-adv-x="339" 
d="M30 729v105h101c47 0 116 -48 116 -158l-11 -205c0 -65 43 -136 64 -136c6 -6 9 -11 9 -17s-3 -12 -9 -18c-21 0 -64 -70 -64 -135l11 -201c0 -110 -69 -158 -116 -158h-99v107c42 0 51 26 51 53c0 13 -4 26 -4 238c0 93 34 112 86 115c-49 5 -81 22 -81 100v242
c0 31 -5 68 -54 68z" />
    <glyph glyph-name="asciitilde" unicode="~" horiz-adv-x="582" 
d="M552 462v-221c-50 -34 -112 -87 -177 -87c-24 0 -49 7 -74 26c-39 29 -74 70 -124 75c-25 0 -53 -18 -147 -102v197c42 47 89 76 138 97c11 4 20 6 30 6c48 0 85 -46 118 -75c20 -19 41 -26 62 -26c69 0 139 79 174 110z" />
    <glyph glyph-name="perthousand" unicode="&#x2030;" horiz-adv-x="1226" 
d="M670 700l-370 -700h-121l370 700h121zM30 537c0 95 77 172 171 172s171 -77 171 -172c0 -93 -77 -170 -171 -170s-171 77 -171 170zM136 537c0 -35 29 -64 65 -64c34 0 63 29 63 64s-29 63 -63 63c-36 0 -65 -28 -65 -63zM483 161c0 95 77 172 171 172s171 -77 171 -172
c0 -93 -77 -170 -171 -170s-171 77 -171 170zM589 161c0 -35 29 -64 65 -64c34 0 63 29 63 64s-29 63 -63 63c-36 0 -65 -28 -65 -63zM854 161c0 95 77 172 171 172s171 -77 171 -172c0 -93 -77 -170 -171 -170s-171 77 -171 170zM960 161c0 -35 29 -64 65 -64
c34 0 63 29 63 64s-29 63 -63 63c-36 0 -65 -28 -65 -63z" />
    <glyph glyph-name="mu" unicode="&#xb5;" horiz-adv-x="735" 
d="M302 500v-232c0 -46 30 -66 70 -66c37 0 59 25 59 67v231h274v-500h-274v34c-26 -21 -53 -30 -78 -30c-19 0 -37 5 -51 14v-268h-272v750h272z" />
    <glyph glyph-name="mu" unicode="&#x3bc;" horiz-adv-x="735" 
d="M302 500v-232c0 -46 30 -66 70 -66c37 0 59 25 59 67v231h274v-500h-274v34c-26 -21 -53 -30 -78 -30c-19 0 -37 5 -51 14v-268h-272v750h272z" />
    <glyph glyph-name="parenleft" unicode="(" horiz-adv-x="370" 
d="M131 750h208c-69 -115 -102 -271 -102 -428c0 -162 35 -324 103 -442h-209c-67 117 -101 278 -101 438c0 158 33 316 101 432z" />
    <glyph glyph-name="parenright" unicode=")" horiz-adv-x="370" 
d="M31 750h208c68 -116 101 -274 101 -432c0 -160 -34 -321 -101 -438h-209c68 118 103 280 103 442c0 157 -33 313 -102 428z" />
    <glyph glyph-name="plus" unicode="+" horiz-adv-x="545" 
d="M30 217v160h162v163h160v-163h163v-160h-163v-162h-160v162h-162z" />
    <glyph glyph-name="seven" unicode="7" horiz-adv-x="624" 
d="M20 541v159h584v-159l-205 -541h-266l212 541h-325z" />
    <glyph glyph-name="comma" unicode="," horiz-adv-x="278" 
d="M263 82l-104 -253h-144l50 253h198z" />
    <glyph glyph-name="tilde" unicode="&#x2dc;" horiz-adv-x="486" 
d="M456 765v-146c-40 -23 -90 -58 -144 -58c-20 0 -41 5 -61 17c-32 19 -60 47 -101 50c-20 0 -43 -12 -120 -68v131c30 27 92 68 138 68c39 0 69 -30 96 -49c16 -13 34 -18 51 -18c56 0 113 53 141 73z" />
    <glyph glyph-name="Ntilde" unicode="&#xd1;" horiz-adv-x="869" 
d="M521 0l-217 360v-360h-274v700h314l221 -367v367h274v-700h-318zM629 946v-146c-40 -23 -90 -58 -144 -58c-20 0 -41 5 -61 17c-32 19 -60 47 -101 50c-20 0 -43 -12 -120 -68v131c30 27 92 68 138 68c39 0 69 -30 96 -49c16 -13 34 -18 51 -18c56 0 113 53 141 73z" />
    <glyph glyph-name="Otilde" unicode="&#xd5;" horiz-adv-x="836" 
d="M811 349c0 -237 -182 -357 -394 -357c-214 0 -392 118 -392 357c0 234 175 361 392 361c223 0 394 -127 394 -361zM300 349c0 -75 21 -179 117 -179c106 0 120 104 120 179c0 65 -19 183 -120 183c-99 0 -117 -118 -117 -183zM633 952v-146c-40 -23 -90 -58 -144 -58
c-20 0 -41 5 -61 17c-32 19 -60 47 -101 50c-20 0 -43 -12 -120 -68v131c30 27 92 68 138 68c39 0 69 -30 96 -49c16 -13 34 -18 51 -18c56 0 113 53 141 73z" />
    <glyph glyph-name="Atilde" unicode="&#xc3;" 
d="M672 700l266 -700h-274l-51 133h-274l-50 -133h-274l266 700h391zM553 292l-77 201l-76 -201h153zM689 950v-146c-40 -23 -90 -58 -144 -58c-20 0 -41 5 -61 17c-32 19 -60 47 -101 50c-20 0 -43 -12 -120 -68v131c30 27 92 68 138 68c39 0 69 -30 96 -49
c16 -13 34 -18 51 -18c56 0 113 53 141 73z" />
    <glyph glyph-name="Adieresis" unicode="&#xc4;" 
d="M672 700l266 -700h-274l-51 133h-274l-50 -133h-274l266 700h391zM553 292l-77 201l-76 -201h153zM262 767v147h166v-147h-166zM527 767v147h167v-147h-167z" />
    <glyph glyph-name="AE" unicode="&#xc6;" horiz-adv-x="1142" 
d="M489 0v133h-150l-50 -133h-274l266 700h831v-159h-349v-104h288v-159h-288v-119h349v-159h-623zM400 292h89v234z" />
    <glyph glyph-name="Aacute" unicode="&#xc1;" 
d="M672 700l266 -700h-274l-51 133h-274l-50 -133h-274l266 700h391zM553 292l-77 201l-76 -201h153zM741 961l-165 -206h-135l98 206h202z" />
    <glyph glyph-name="Agrave" unicode="&#xc0;" 
d="M672 700l266 -700h-274l-51 133h-274l-50 -133h-274l266 700h391zM553 292l-77 201l-76 -201h153zM397 753l-161 206h202l94 -206h-135z" />
    <glyph glyph-name="Odieresis" unicode="&#xd6;" horiz-adv-x="836" 
d="M811 349c0 -237 -182 -357 -394 -357c-214 0 -392 118 -392 357c0 234 175 361 392 361c223 0 394 -127 394 -361zM300 349c0 -75 21 -179 117 -179c106 0 120 104 120 179c0 65 -19 183 -120 183c-99 0 -117 -118 -117 -183zM204 759v147h166v-147h-166zM469 759v147
h167v-147h-167z" />
    <glyph glyph-name="Ocircumflex" unicode="&#xd4;" horiz-adv-x="836" 
d="M811 349c0 -237 -182 -357 -394 -357c-214 0 -392 118 -392 357c0 234 175 361 392 361c223 0 394 -127 394 -361zM300 349c0 -75 21 -179 117 -179c106 0 120 104 120 179c0 65 -19 183 -120 183c-99 0 -117 -118 -117 -183zM494 753l-74 74l-73 -74h-158l146 147h171
l146 -147h-158z" />
    <glyph glyph-name="Oacute" unicode="&#xd3;" horiz-adv-x="836" 
d="M811 349c0 -237 -182 -357 -394 -357c-214 0 -392 118 -392 357c0 234 175 361 392 361c223 0 394 -127 394 -361zM300 349c0 -75 21 -179 117 -179c106 0 120 104 120 179c0 65 -19 183 -120 183c-99 0 -117 -118 -117 -183zM682 963l-165 -206h-135l98 206h202z" />
    <glyph glyph-name="Ograve" unicode="&#xd2;" horiz-adv-x="836" 
d="M811 349c0 -237 -182 -357 -394 -357c-214 0 -392 118 -392 357c0 234 175 361 392 361c223 0 394 -127 394 -361zM300 349c0 -75 21 -179 117 -179c106 0 120 104 120 179c0 65 -19 183 -120 183c-99 0 -117 -118 -117 -183zM359 755l-161 206h202l94 -206h-135z" />
    <glyph glyph-name="Eth" unicode="&#xd0;" horiz-adv-x="899" 
d="M15 276v160h78v264h389c217 0 392 -117 392 -351c0 -239 -178 -349 -392 -349h-389v276h-78zM411 546h-44v-110h67v-160h-67v-113h71c101 0 161 56 161 186c0 136 -65 197 -188 197z" />
    <glyph glyph-name="Igrave" unicode="&#xcc;" horiz-adv-x="409" 
d="M105 0v700h274v-700h-274zM176 751l-161 206h202l94 -206h-135z" />
    <glyph glyph-name="Iacute" unicode="&#xcd;" horiz-adv-x="413" 
d="M30 0v700h274v-700h-274zM398 956l-165 -206h-135l98 206h202z" />
    <glyph glyph-name="Icircumflex" unicode="&#xce;" horiz-adv-x="493" 
d="M104 0v700h274v-700h-274zM320 753l-74 74l-73 -74h-158l146 147h171l146 -147h-158z" />
    <glyph glyph-name="Idieresis" unicode="&#xcf;" horiz-adv-x="462" 
d="M89 0v700h274v-700h-274zM15 766v147h166v-147h-166zM280 766v147h167v-147h-167z" />
    <glyph glyph-name="Ugrave" unicode="&#xd9;" horiz-adv-x="805" 
d="M501 349v351h274v-351c0 -237 -162 -357 -374 -357c-213 0 -371 117 -371 357v351h274v-351c0 -75 1 -179 97 -179c99 0 100 91 100 179zM338 748l-161 206h202l94 -206h-135z" />
    <glyph glyph-name="Uacute" unicode="&#xda;" horiz-adv-x="805" 
d="M501 349v351h274v-351c0 -237 -162 -357 -374 -357c-213 0 -371 117 -371 357v351h274v-351c0 -75 1 -179 97 -179c99 0 100 91 100 179zM637 956l-165 -206h-135l98 206h202z" />
    <glyph glyph-name="Ucircumflex" unicode="&#xdb;" horiz-adv-x="805" 
d="M501 349v351h274v-351c0 -237 -162 -357 -374 -357c-213 0 -371 117 -371 357v351h274v-351c0 -75 1 -179 97 -179c99 0 100 91 100 179zM478 753l-74 74l-73 -74h-158l146 147h171l146 -147h-158z" />
    <glyph glyph-name="Udieresis" unicode="&#xdc;" horiz-adv-x="805" 
d="M501 349v351h274v-351c0 -237 -162 -357 -374 -357c-213 0 -371 117 -371 357v351h274v-351c0 -75 1 -179 97 -179c99 0 100 91 100 179zM189 753v147h166v-147h-166zM454 753v147h167v-147h-167z" />
    <glyph glyph-name="Yacute" unicode="&#xdd;" horiz-adv-x="786" 
d="M256 0v286l-241 414h254l125 -236l123 236h254l-241 -414v-286h-274zM636 945l-165 -206h-135l98 206h202z" />
    <glyph glyph-name="logicalnot" unicode="&#xac;" horiz-adv-x="567" 
d="M30 276v160h507v-309h-160v149h-347z" />
    <glyph glyph-name="guilsinglleft" unicode="&#x2039;" horiz-adv-x="369" 
d="M344 28h-194l-125 234l125 227h194l-113 -227z" />
    <glyph glyph-name="guilsinglright" unicode="&#x203a;" horiz-adv-x="379" 
d="M224 28h-194l113 234l-113 227h194l125 -227z" />
    <glyph glyph-name="guillemotleft" unicode="&#xab;" horiz-adv-x="645" 
d="M344 28h-194l-125 234l125 227h194l-113 -227zM620 28h-194l-125 234l125 227h194l-113 -227z" />
    <glyph glyph-name="guillemotright" unicode="&#xbb;" horiz-adv-x="645" 
d="M495 28h-194l113 234l-113 227h194l125 -227zM219 28h-194l113 234l-113 227h194l125 -227z" />
    <glyph glyph-name="cent" unicode="&#xa2;" horiz-adv-x="559" 
d="M532 151l2 -149c-52 -7 -81 -10 -117 -10c-14 0 -29 0 -43 1v-69h-77v73c-139 14 -272 68 -272 253c0 172 132 239 272 254v70h77v-66c57 -1 112 -9 156 -20v-139c-26 10 -52 14 -77 14c-85 0 -153 -52 -153 -113c0 -74 60 -105 161 -105c19 0 32 2 71 6z" />
    <glyph glyph-name="paragraph" unicode="&#xb6;" horiz-adv-x="629" 
d="M599 700v-700h-165v571c-7 1 -21 1 -27 1c-10 0 -15 -1 -25 -3v-569h-165v226c-138 29 -192 124 -192 237c0 117 50 210 192 237h382z" />
    <glyph glyph-name="periodcentered" unicode="&#xb7;" horiz-adv-x="278" 
d="M30 200v192h218v-192h-218z" />
    <glyph glyph-name="section" unicode="&#xa7;" horiz-adv-x="529" 
d="M192 203c-65 30 -154 71 -154 156v11c3 40 25 73 58 96c-32 28 -41 60 -41 102c7 92 108 140 226 140c60 0 123 -12 181 -38l-42 -131c-69 22 -109 32 -130 32c-13 0 -19 -4 -19 -12c1 -27 90 -38 157 -80c47 -35 71 -70 71 -121v-12c-3 -43 -21 -76 -48 -100
c19 -22 31 -50 31 -86v-12c-8 -111 -116 -153 -231 -153c-82 0 -167 21 -221 54l30 135c84 -25 140 -35 174 -35c24 0 39 5 39 16c-4 17 -53 25 -81 38zM300 371c-5 5 -14 6 -26 6c-14 0 -30 -4 -30 -15c0 -7 5 -14 14 -20c29 3 44 11 44 22c0 3 0 5 -2 7z" />
    <glyph glyph-name="brokenbar" unicode="&#xa6;" horiz-adv-x="219" 
d="M30 239h159v-361h-159v361zM189 345h-159v355h159v-355z" />
    <glyph glyph-name="dagger" unicode="&#x2020;" horiz-adv-x="636" 
d="M30 410v159h148v131h274v-131h154v-159h-154v-541h-274v541h-148z" />
    <glyph glyph-name="daggerdbl" unicode="&#x2021;" horiz-adv-x="639" 
d="M33 410v159h148v131h274v-131h154v-159h-154v-247h151v-159h-151v-135h-274v135h-151v159h151v247h-148z" />
    <glyph glyph-name="Ydieresis" unicode="&#x178;" horiz-adv-x="786" 
d="M256 0v286l-241 414h254l125 -236l123 236h254l-241 -414v-286h-274zM179 767v147h166v-147h-166zM444 767v147h167v-147h-167z" />
    <glyph glyph-name="OE" unicode="&#x152;" horiz-adv-x="1127" 
d="M1097 0h-616c-21 -6 -42 -8 -64 -8c-214 0 -392 118 -392 357c0 234 175 361 392 361c21 0 42 -1 62 -10h618v-159h-349v-104h288v-159h-288v-119h349v-159zM417 170c23 0 42 5 57 13v333c-15 10 -34 16 -57 16c-99 0 -117 -118 -117 -183c0 -75 21 -179 117 -179z" />
    <glyph glyph-name="Euro" unicode="&#x20ac;" horiz-adv-x="691" 
d="M30 371v83h87c45 166 197 256 379 256c39 0 105 -4 165 -12v-156c-40 2 -77 4 -94 4c-85 0 -142 -29 -170 -92h187v-83h-205v-22c0 -11 0 -21 1 -30h204v-83h-183c26 -50 74 -73 139 -73c24 0 72 3 121 9v-166c-59 -9 -123 -14 -165 -14c-177 0 -330 80 -377 244h-89v83
h75c-1 10 -1 20 -1 30c0 7 0 15 1 22h-75z" />
    <glyph glyph-name="Oslash" unicode="&#xd8;" horiz-adv-x="836" 
d="M811 349c0 -237 -182 -357 -394 -357c-31 0 -61 2 -89 7l-27 -68h-85l35 88c-133 47 -226 157 -226 330c0 234 175 361 392 361c36 0 71 -4 104 -10l26 64h85l-35 -87c129 -51 214 -163 214 -328zM300 349c0 -43 6 -95 30 -132l122 309c-10 4 -22 6 -35 6
c-99 0 -117 -118 -117 -183zM537 349c0 33 -5 80 -23 118l-118 -296c7 -1 14 -1 21 -1c106 0 120 104 120 179z" />
    <glyph glyph-name="cedilla" unicode="&#xb8;" horiz-adv-x="320" 
d="M100 -64v64h129v-64c44 -49 61 -88 61 -118c0 -63 -76 -89 -152 -89c-39 0 -79 7 -108 19v82c30 -10 54 -14 72 -14c31 0 46 12 46 33c0 22 -16 52 -48 87z" />
    <glyph glyph-name="Ccedilla" unicode="&#xc7;" horiz-adv-x="729" 
d="M372 -33v27c-191 17 -342 135 -342 355c0 234 175 361 392 361c65 0 210 -11 263 -32v-145c-41 8 -159 13 -192 13c-105 0 -188 -61 -188 -197c0 -130 72 -186 173 -186c44 0 164 10 221 30v-159c-42 -20 -126 -33 -198 -38v-29c44 -49 61 -88 61 -118
c0 -63 -76 -89 -152 -89c-39 0 -79 7 -108 19v82c30 -10 54 -14 72 -14c31 0 46 12 46 33c0 22 -16 52 -48 87z" />
    <glyph glyph-name="currency" unicode="&#xa4;" horiz-adv-x="719" 
d="M689 142l-80 -80l-82 82c-46 -35 -103 -55 -165 -55c-63 0 -121 21 -168 57l-84 -84l-80 80l91 91c-22 39 -34 83 -34 131c0 46 11 90 32 129l-89 89l80 80l82 -82c47 37 106 60 170 60c63 0 121 -22 168 -57l79 79l80 -80l-86 -86c22 -39 35 -84 35 -132
c0 -49 -13 -95 -36 -135zM236 364c0 -69 57 -126 126 -126c71 0 128 57 128 126c0 71 -57 128 -128 128c-69 0 -126 -57 -126 -128z" />
    <glyph glyph-name="exclamdown" unicode="&#xa1;" horiz-adv-x="344" 
d="M309 230v-429h-274v429h274zM30 330v171h284v-171h-284z" />
    <glyph glyph-name="sterling" unicode="&#xa3;" horiz-adv-x="670" 
d="M30 431h80v69c3 186 144 255 286 255c43 0 86 -11 125 -21v-153c-15 6 -31 9 -47 9c-46 0 -90 -27 -90 -90v-69h158v-132h-158v-140h256v-159h-530v299h-80v132z" />
    <glyph glyph-name="florin" unicode="&#x192;" horiz-adv-x="760" 
d="M179 294l32 159h75c41 186 196 255 338 255c43 0 84 -11 121 -21l-31 -153c-14 6 -29 9 -45 9c-46 0 -94 -27 -109 -90h112l-32 -159h-112l-61 -298c-41 -186 -196 -255 -338 -255c-42 0 -83 11 -120 21l31 153c14 -6 30 -9 46 -9c44 0 90 26 106 86l62 302h-75z" />
    <glyph glyph-name="plusminus" unicode="&#xb1;" horiz-adv-x="567" 
d="M38 353v160h162v163h160v-163h163v-160h-163v-162h-160v162h-162zM30 0v160h507v-160h-507z" />
    <glyph glyph-name="Thorn" unicode="&#xde;" horiz-adv-x="709" 
d="M30 0v700h274v-109h89c195 0 291 -56 291 -237s-109 -246 -317 -246h-63v-108h-274zM348 452l-44 3v-207c21 1 17 3 33 4c27 3 84 23 84 90c0 90 -34 105 -73 110z" />
    <glyph glyph-name="thorn" unicode="&#xfe;" horiz-adv-x="698" 
d="M410 -10c-36 0 -72 4 -106 10v-250h-274v1000h274v-256c30 8 61 13 93 13c149 0 276 -72 276 -257c0 -196 -115 -260 -263 -260zM300 366c-10 -43 -15 -85 -15 -127c0 -35 4 -70 10 -104c62 12 103 47 103 115c0 87 -30 116 -98 116z" />
    <glyph glyph-name="question" unicode="?" horiz-adv-x="574" 
d="M138 1v180h217v-180h-217zM138 241v113c108 48 165 60 165 129c0 54 -32 74 -73 74c-25 0 -54 -8 -80 -21l-135 73c68 71 158 98 258 98c149 0 276 -59 276 -224c0 -151 -103 -180 -194 -198v-44h-217z" />
    <glyph glyph-name="asterisk" unicode="*" horiz-adv-x="430" 
d="M185 373v97l-66 -83l-89 89l127 80l-127 81l89 89l66 -89v113h60v-113l65 89l89 -89l-129 -81l130 -80l-89 -89l-66 83v-97h-60z" />
    <glyph glyph-name="two" unicode="2" horiz-adv-x="621" 
d="M591 0h-561v211c65 33 285 155 285 244c0 67 -61 91 -130 91c-54 0 -112 -15 -150 -36v139c73 39 158 60 239 60c156 0 295 -78 295 -256c0 -104 -120 -225 -265 -290h287v-163z" />
    <glyph glyph-name="three" unicode="3" horiz-adv-x="617" 
d="M30 32v149c43 -20 117 -36 182 -36c71 0 132 19 132 74c0 62 -58 74 -115 74c-32 0 -64 -4 -86 -5v149c19 -3 47 -7 76 -7c57 0 119 14 119 70c0 50 -57 70 -125 70c-59 0 -125 -15 -171 -39v139c66 22 154 38 241 38c155 0 303 -51 303 -208c0 -62 -37 -116 -70 -136
c39 -19 76 -83 76 -145c0 -178 -142 -228 -294 -228c-97 0 -197 20 -268 41z" />
    <glyph glyph-name="four" unicode="4" horiz-adv-x="740" 
d="M348 0v171h-318v131l318 398h274v-393h88v-136h-88v-171h-274zM234 307h114v164z" />
    <glyph glyph-name="five" unicode="5" horiz-adv-x="594" 
d="M39 700h504v-163h-253v-96c196 -25 260 -79 274 -190c0 -197 -151 -258 -340 -258c-84 0 -161 22 -194 41v139c32 -18 79 -29 125 -29c78 0 155 30 155 105c0 62 -52 89 -146 89c-36 0 -77 -4 -125 -11v373z" />
    <glyph glyph-name="six" unicode="6" horiz-adv-x="722" 
d="M281 419c49 21 113 36 177 36c108 0 214 -42 234 -160c3 -19 5 -37 5 -54c0 -172 -159 -249 -309 -249c-237 0 -363 150 -363 357c0 237 186 361 363 361c65 0 175 -23 228 -44v-140c-49 12 -98 22 -144 22c-79 0 -149 -30 -191 -129zM474 257c-17 48 -45 65 -77 65
c-40 0 -86 -28 -118 -50c15 -66 41 -106 96 -106c13 0 27 2 43 7c29 8 60 30 60 63c0 7 -1 14 -4 21z" />
    <glyph glyph-name="nine" unicode="9" horiz-adv-x="708" 
d="M432 273c-47 -20 -107 -33 -167 -33c-112 0 -222 44 -237 167c-2 16 -3 32 -3 47c0 191 165 256 318 256c227 0 340 -138 340 -332c0 -203 -148 -386 -374 -386c-65 0 -174 23 -227 44l8 140c52 -14 106 -26 155 -26c75 0 142 28 187 123zM243 463c0 -42 30 -77 76 -77
c38 0 82 17 120 32c-5 66 -37 117 -98 117c-40 0 -98 -22 -98 -72z" />
    <glyph glyph-name="onesuperior" unicode="&#xb9;" horiz-adv-x="330" 
d="M20 634l93 67h187v-402h-171v272l-49 -40z" />
    <glyph glyph-name="twosuperior" unicode="&#xb2;" horiz-adv-x="420" 
d="M390 300h-360v132l8 4c45 22 154 76 154 125c0 28 -21 38 -48 38c-32 0 -73 -13 -100 -29v101c40 23 95 37 149 37c94 0 185 -41 185 -146c0 -60 -66 -115 -150 -153h162v-109z" />
    <glyph glyph-name="threesuperior" unicode="&#xb3;" horiz-adv-x="421" 
d="M30 312v99c27 -12 74 -22 114 -22c39 0 72 9 72 34c0 31 -43 35 -81 35h-38v102c11 -2 26 -4 43 -4c35 0 73 8 73 34c0 21 -34 31 -75 31c-35 0 -74 -8 -101 -22v91c39 13 96 23 152 23c100 0 198 -30 198 -123c0 -37 -22 -69 -41 -81c23 -11 45 -49 45 -86
c0 -106 -94 -136 -192 -136c-62 0 -127 13 -169 25z" />
    <glyph glyph-name="ordmasculine" unicode="&#xba;" horiz-adv-x="498" 
d="M249 289c-66 0 -224 39 -224 209c0 190 164 211 224 211c82 0 224 -36 224 -211c0 -170 -145 -209 -224 -209zM249 429c29 0 42 18 42 69c0 48 -8 75 -42 75c-32 0 -43 -27 -43 -75c0 -51 17 -69 43 -69z" />
    <glyph glyph-name="onequarter" unicode="&#xbc;" horiz-adv-x="932" 
d="M739 700l-479 -700h-112l479 700h112zM18 634l93 67h189v-402h-173v272l-49 -40zM673 0v86h-202v87l180 227h200v-224h51v-90h-51v-86h-178zM619 176h54v74z" />
    <glyph glyph-name="onehalf" unicode="&#xbd;" horiz-adv-x="941" 
d="M740 700l-479 -700h-112l479 700h112zM19 634l93 67h189v-402h-173v272l-49 -40zM911 0h-360v132l8 4c45 22 154 76 154 125c0 28 -21 38 -48 38c-32 0 -73 -13 -100 -29v101c40 23 95 37 149 37c94 0 185 -41 185 -146c0 -60 -66 -115 -150 -153h162v-109z" />
    <glyph glyph-name="threequarters" unicode="&#xbe;" horiz-adv-x="983" 
d="M30 312v99c27 -12 74 -22 114 -22c39 0 72 9 72 34c0 31 -43 35 -81 35h-38v102c11 -2 26 -4 43 -4c35 0 73 8 73 34c0 21 -34 31 -75 31c-35 0 -74 -8 -101 -22v91c39 13 96 23 152 23c100 0 198 -30 198 -123c0 -37 -22 -69 -41 -81c23 -11 45 -49 45 -86
c0 -106 -94 -136 -192 -136c-62 0 -127 13 -169 25zM790 700l-479 -700h-112l479 700h112zM724 0v86h-202v87l180 227h200v-224h51v-90h-51v-86h-178zM670 176h54v74z" />
    <glyph glyph-name="questiondown" unicode="&#xbf;" horiz-adv-x="594" 
d="M471 500v-180h-217v180h217zM471 260v-113c-108 -48 -165 -60 -165 -129c0 -54 32 -74 73 -74c25 0 54 8 80 21l135 -73c-68 -71 -158 -98 -258 -98c-149 0 -276 59 -276 224c0 151 103 180 194 198v44h217z" />
    <glyph glyph-name="degree" unicode="&#xb0;" horiz-adv-x="392" 
d="M25 538c0 95 77 172 171 172s171 -77 171 -172c0 -93 -77 -170 -171 -170s-171 77 -171 170zM131 538c0 -35 29 -64 65 -64c34 0 63 29 63 64s-29 63 -63 63c-36 0 -65 -28 -65 -63z" />
    <glyph glyph-name="ordfeminine" unicode="&#xaa;" horiz-adv-x="531" 
d="M501 300h-219v4c-20 -6 -13 -9 -36 -9c-119 0 -221 56 -221 204c0 157 92 209 210 209c29 0 24 -3 47 -8h219v-400zM302 420c3 24 4 49 4 73c0 34 -3 68 -6 102c-59 -5 -67 -47 -67 -96c0 -45 19 -80 58 -80c3 0 7 0 11 1z" />
    <glyph glyph-name="multiply" unicode="&#xd7;" horiz-adv-x="596" 
d="M447 567l119 -120l-148 -148l148 -148l-120 -120l-148 148l-148 -148l-120 120l148 148l-148 148l119 120l149 -149z" />
    <glyph glyph-name="oe" unicode="&#x153;" horiz-adv-x="1052" 
d="M364 -8c-100 0 -339 48 -339 258c0 234 249 260 340 260c57 0 134 -10 200 -42c59 32 131 42 196 42c139 0 266 -51 266 -243v-81h-328c0 -43 60 -60 102 -60c78 0 181 21 198 27v-125c-66 -17 -169 -36 -260 -36c-46 0 -112 11 -171 45c-67 -34 -147 -45 -204 -45z
M364 164c44 0 64 22 64 86c0 58 -12 93 -64 93c-48 0 -64 -35 -64 -93c0 -64 24 -86 64 -86zM751 359c-24 0 -50 -2 -52 -60v-4h102c-3 31 -15 64 -50 64z" />
    <glyph glyph-name="germandbls" unicode="&#xdf;" horiz-adv-x="725" 
d="M355 332l1 82c34 19 93 36 93 104c0 92 -50 96 -89 96c-41 0 -56 -70 -56 -145v-469h-274v364c0 80 7 386 276 386h97c149 0 270 -70 270 -228c0 -46 -24 -86 -58 -117c52 -23 85 -68 85 -154c0 -196 -134 -259 -282 -259c-21 0 -42 2 -63 4v144c48 5 109 21 109 105
c0 73 -61 73 -109 87z" />
    <glyph glyph-name="divide" unicode="&#xf7;" horiz-adv-x="567" 
d="M192 416v156h177v-156h-177zM30 219v160h507v-160h-507zM192 24v156h177v-156h-177z" />
    <glyph glyph-name="odieresis" unicode="&#xf6;" horiz-adv-x="728" 
d="M364 -8c-100 0 -339 48 -339 258c0 234 249 260 340 260c124 0 338 -44 338 -260c0 -210 -219 -258 -339 -258zM364 164c44 0 64 22 64 86c0 58 -12 93 -64 93c-48 0 -64 -35 -64 -93c0 -64 24 -86 64 -86zM156 554v147h166v-147h-166zM421 554v147h167v-147h-167z" />
    <glyph glyph-name="otilde" unicode="&#xf5;" horiz-adv-x="728" 
d="M364 -8c-100 0 -339 48 -339 258c0 234 249 260 340 260c124 0 338 -44 338 -260c0 -210 -219 -258 -339 -258zM364 164c44 0 64 22 64 86c0 58 -12 93 -64 93c-48 0 -64 -35 -64 -93c0 -64 24 -86 64 -86zM586 746v-146c-40 -23 -90 -58 -144 -58c-20 0 -41 5 -61 17
c-32 19 -60 47 -101 50c-20 0 -43 -12 -120 -68v131c30 27 92 68 138 68c39 0 69 -30 96 -49c16 -13 34 -18 51 -18c56 0 113 53 141 73z" />
    <glyph glyph-name="ocircumflex" unicode="&#xf4;" horiz-adv-x="728" 
d="M364 -8c-100 0 -339 48 -339 258c0 234 249 260 340 260c124 0 338 -44 338 -260c0 -210 -219 -258 -339 -258zM364 164c44 0 64 22 64 86c0 58 -12 93 -64 93c-48 0 -64 -35 -64 -93c0 -64 24 -86 64 -86zM445 553l-74 74l-73 -74h-158l146 147h171l146 -147h-158z" />
    <glyph glyph-name="oacute" unicode="&#xf3;" horiz-adv-x="728" 
d="M364 -8c-100 0 -339 48 -339 258c0 234 249 260 340 260c124 0 338 -44 338 -260c0 -210 -219 -258 -339 -258zM364 164c44 0 64 22 64 86c0 58 -12 93 -64 93c-48 0 -64 -35 -64 -93c0 -64 24 -86 64 -86zM617 722l-177 -174h-145l105 174h217z" />
    <glyph glyph-name="ograve" unicode="&#xf2;" horiz-adv-x="728" 
d="M364 -8c-100 0 -339 48 -339 258c0 234 249 260 340 260c124 0 338 -44 338 -260c0 -210 -219 -258 -339 -258zM364 164c44 0 64 22 64 86c0 58 -12 93 -64 93c-48 0 -64 -35 -64 -93c0 -64 24 -86 64 -86zM280 548l-173 165h217l101 -165h-145z" />
    <glyph glyph-name="ntilde" unicode="&#xf1;" horiz-adv-x="755" 
d="M453 0v232c0 46 -26 72 -66 72c-37 0 -83 -31 -83 -73v-231h-274v500h274v-56c65 44 130 65 189 65c131 0 232 -100 232 -267v-242h-272zM590 754v-146c-40 -23 -90 -58 -144 -58c-20 0 -41 5 -61 17c-32 19 -60 47 -101 50c-20 0 -43 -12 -120 -68v131
c30 27 92 68 138 68c39 0 69 -30 96 -49c16 -13 34 -18 51 -18c56 0 113 53 141 73z" />
    <glyph glyph-name="ccedilla" unicode="&#xe7;" horiz-adv-x="559" 
d="M269 -22v23c-128 19 -244 76 -244 249c0 200 178 258 340 258c61 0 119 -8 165 -20v-139c-26 10 -52 14 -77 14c-85 0 -153 -52 -153 -113c0 -74 60 -105 161 -105c19 0 32 2 73 6v-149c-52 -7 -81 -10 -117 -10h-25v-14c42 -41 58 -74 58 -99c0 -54 -72 -76 -144 -76
c-37 0 -76 6 -103 16v70c28 -9 51 -12 68 -12c30 0 44 10 44 28s-15 44 -46 73z" />
    <glyph glyph-name="egrave" unicode="&#xe8;" horiz-adv-x="631" 
d="M578 153v-125c-66 -17 -169 -36 -260 -36c-97 0 -293 53 -293 258c0 214 175 260 315 260c139 0 266 -51 266 -243v-81h-328c0 -43 60 -60 102 -60c78 0 181 21 198 27zM330 359c-24 0 -51 -2 -52 -64h102c-3 31 -15 64 -50 64zM254 550l-173 165h217l101 -165h-145z" />
    <glyph glyph-name="eacute" unicode="&#xe9;" horiz-adv-x="631" 
d="M578 153v-125c-66 -17 -169 -36 -260 -36c-97 0 -293 53 -293 258c0 214 175 260 315 260c139 0 266 -51 266 -243v-81h-328c0 -43 60 -60 102 -60c78 0 181 21 198 27zM330 359c-24 0 -51 -2 -52 -64h102c-3 31 -15 64 -50 64zM575 722l-177 -174h-145l105 174h217z" />
    <glyph glyph-name="ecircumflex" unicode="&#xea;" horiz-adv-x="631" 
d="M578 153v-125c-66 -17 -169 -36 -260 -36c-97 0 -293 53 -293 258c0 214 175 260 315 260c139 0 266 -51 266 -243v-81h-328c0 -43 60 -60 102 -60c78 0 181 21 198 27zM330 359c-24 0 -51 -2 -52 -64h102c-3 31 -15 64 -50 64zM398 553l-74 74l-73 -74h-158l146 147h171
l146 -147h-158z" />
    <glyph glyph-name="edieresis" unicode="&#xeb;" horiz-adv-x="631" 
d="M578 153v-125c-66 -17 -169 -36 -260 -36c-97 0 -293 53 -293 258c0 214 175 260 315 260c139 0 266 -51 266 -243v-81h-328c0 -43 60 -60 102 -60c78 0 181 21 198 27zM330 359c-24 0 -51 -2 -52 -64h102c-3 31 -15 64 -50 64zM114 556v147h166v-147h-166zM379 556v147
h167v-147h-167z" />
    <glyph glyph-name="igrave" unicode="&#xec;" horiz-adv-x="418" 
d="M388 500v-500h-274v500h274zM188 585l-173 165h217l101 -165h-145z" />
    <glyph glyph-name="iacute" unicode="&#xed;" horiz-adv-x="426" 
d="M304 500v-500h-274v500h274zM411 722l-177 -174h-145l105 174h217z" />
    <glyph glyph-name="icircumflex" unicode="&#xee;" horiz-adv-x="493" 
d="M383 500v-500h-274v500h274zM320 553l-74 74l-73 -74h-158l146 147h171l146 -147h-158z" />
    <glyph glyph-name="idieresis" unicode="&#xef;" horiz-adv-x="462" 
d="M368 500v-500h-274v500h274zM15 602v147h166v-147h-166zM280 602v147h167v-147h-167z" />
    <glyph glyph-name="ugrave" unicode="&#xf9;" horiz-adv-x="735" 
d="M302 500v-232c0 -46 30 -66 70 -66c37 0 59 25 59 67v231h274v-500h-274v34c-57 -30 -112 -43 -162 -43c-137 0 -239 102 -239 267v242h272zM295 550l-173 165h217l101 -165h-145z" />
    <glyph glyph-name="uacute" unicode="&#xfa;" horiz-adv-x="735" 
d="M302 500v-232c0 -46 30 -66 70 -66c37 0 59 25 59 67v231h274v-500h-274v34c-57 -30 -112 -43 -162 -43c-137 0 -239 102 -239 267v242h272zM612 722l-177 -174h-145l105 174h217z" />
    <glyph glyph-name="ucircumflex" unicode="&#xfb;" horiz-adv-x="735" 
d="M302 500v-232c0 -46 30 -66 70 -66c37 0 59 25 59 67v231h274v-500h-274v34c-57 -30 -112 -43 -162 -43c-137 0 -239 102 -239 267v242h272zM443 553l-74 74l-73 -74h-158l146 147h171l146 -147h-158z" />
    <glyph glyph-name="udieresis" unicode="&#xfc;" horiz-adv-x="735" 
d="M302 500v-232c0 -46 30 -66 70 -66c37 0 59 25 59 67v231h274v-500h-274v34c-57 -30 -112 -43 -162 -43c-137 0 -239 102 -239 267v242h272zM153 554v147h166v-147h-166zM418 554v147h167v-147h-167z" />
    <glyph glyph-name="agrave" unicode="&#xe0;" horiz-adv-x="650" 
d="M620 0h-274c0 1 0 2 1 4c-26 -7 -17 -11 -46 -11c-149 0 -276 72 -276 257c0 196 115 260 263 260c35 0 30 -4 59 -10h273v-500zM371 149c3 32 5 64 5 96c0 41 -3 82 -8 124c-74 -7 -83 -58 -83 -119c0 -57 24 -102 74 -102c4 0 8 0 12 1zM273 552l-173 165h217l101 -165
h-145z" />
    <glyph glyph-name="aacute" unicode="&#xe1;" horiz-adv-x="650" 
d="M620 0h-274c0 1 0 2 1 4c-26 -7 -17 -11 -46 -11c-149 0 -276 72 -276 257c0 196 115 260 263 260c35 0 30 -4 59 -10h273v-500zM371 149c3 32 5 64 5 96c0 41 -3 82 -8 124c-74 -7 -83 -58 -83 -119c0 -57 24 -102 74 -102c4 0 8 0 12 1zM602 722l-177 -174h-145
l105 174h217z" />
    <glyph glyph-name="acircumflex" unicode="&#xe2;" horiz-adv-x="650" 
d="M620 0h-274c0 1 0 2 1 4c-26 -7 -17 -11 -46 -11c-149 0 -276 72 -276 257c0 196 115 260 263 260c35 0 30 -4 59 -10h273v-500zM371 149c3 32 5 64 5 96c0 41 -3 82 -8 124c-74 -7 -83 -58 -83 -119c0 -57 24 -102 74 -102c4 0 8 0 12 1zM428 557l-74 74l-73 -74h-158
l146 147h171l146 -147h-158z" />
    <glyph glyph-name="atilde" unicode="&#xe3;" horiz-adv-x="650" 
d="M620 0h-274c0 1 0 2 1 4c-26 -7 -17 -11 -46 -11c-149 0 -276 72 -276 257c0 196 115 260 263 260c35 0 30 -4 59 -10h273v-500zM371 149c3 32 5 64 5 96c0 41 -3 82 -8 124c-74 -7 -83 -58 -83 -119c0 -57 24 -102 74 -102c4 0 8 0 12 1zM558 750v-146
c-40 -23 -90 -58 -144 -58c-20 0 -41 5 -61 17c-32 19 -60 47 -101 50c-20 0 -43 -12 -120 -68v131c30 27 92 68 138 68c39 0 69 -30 96 -49c16 -13 34 -18 51 -18c56 0 113 53 141 73z" />
    <glyph glyph-name="adieresis" unicode="&#xe4;" horiz-adv-x="650" 
d="M620 0h-274c0 1 0 2 1 4c-26 -7 -17 -11 -46 -11c-149 0 -276 72 -276 257c0 196 115 260 263 260c35 0 30 -4 59 -10h273v-500zM371 149c3 32 5 64 5 96c0 41 -3 82 -8 124c-74 -7 -83 -58 -83 -119c0 -57 24 -102 74 -102c4 0 8 0 12 1zM141 557v147h166v-147h-166z
M406 557v147h167v-147h-167z" />
    <glyph glyph-name="aring" unicode="&#xe5;" horiz-adv-x="650" 
d="M620 0h-274c0 1 0 2 1 4c-26 -7 -17 -11 -46 -11c-149 0 -276 72 -276 257c0 196 115 260 263 260c35 0 30 -4 59 -10h273v-500zM371 149c3 32 5 64 5 96c0 41 -3 82 -8 124c-74 -7 -83 -58 -83 -119c0 -57 24 -102 74 -102c4 0 8 0 12 1zM203 686c0 85 69 154 153 154
c85 0 154 -69 154 -154c0 -84 -69 -153 -154 -153c-84 0 -153 69 -153 153zM298 686c0 -32 26 -58 58 -58c31 0 57 26 57 58c0 31 -26 57 -57 57c-32 0 -58 -26 -58 -57z" />
    <glyph glyph-name="ae" unicode="&#xe6;" horiz-adv-x="1007" 
d="M620 0h-274c0 1 0 2 1 4c-26 -7 -17 -11 -46 -11c-149 0 -276 72 -276 257c0 196 115 260 263 260c35 0 30 -4 59 -10h263c35 7 72 10 106 10c139 0 266 -51 266 -243v-81h-328c0 -43 60 -60 102 -60c78 0 181 21 198 27v-125c-66 -17 -169 -36 -260 -36
c-21 0 -47 3 -74 8zM371 149c3 32 5 64 5 96c0 41 -3 82 -8 124c-74 -7 -83 -58 -83 -119c0 -57 24 -102 74 -102c4 0 8 0 12 1zM706 359c-24 0 -51 -2 -52 -64h102c-3 31 -15 64 -50 64z" />
    <glyph glyph-name="oslash" unicode="&#xf8;" horiz-adv-x="728" 
d="M364 -8c-20 0 -45 2 -73 7l-26 -68h-59l31 79c-102 29 -212 97 -212 240c0 234 249 260 340 260c21 0 44 -1 68 -4l26 64h59l-30 -75c107 -26 215 -92 215 -245c0 -210 -219 -258 -339 -258zM357 164c51 0 71 22 71 86c0 27 -3 49 -11 65zM300 250c0 -25 3 -43 10 -57
l59 150c-53 0 -69 -35 -69 -93z" />
    <glyph glyph-name="yacute" unicode="&#xfd;" horiz-adv-x="679" 
d="M389 500h260v-531c-2 -63 -28 -112 -69 -148c-63 -56 -163 -81 -268 -81c-31 0 -63 2 -94 5c-44 4 -93 13 -135 25v158c60 -18 125 -32 190 -32c43 0 116 40 116 70v36c-37 -7 -79 -12 -117 -12c-148 0 -241 64 -241 260c0 7 -1 243 -1 250h253v-250c0 -36 8 -85 50 -85
c40 0 56 24 56 103v232zM584 722l-177 -174h-145l105 174h217z" />
    <glyph glyph-name="ydieresis" unicode="&#xff;" horiz-adv-x="679" 
d="M389 500h260v-531c-2 -63 -28 -112 -69 -148c-63 -56 -163 -81 -268 -81c-31 0 -63 2 -94 5c-44 4 -93 13 -135 25v158c60 -18 125 -32 190 -32c43 0 116 40 116 70v36c-37 -7 -79 -12 -117 -12c-148 0 -241 64 -241 260c0 7 -1 243 -1 250h253v-250c0 -36 8 -85 50 -85
c40 0 56 24 56 103v232zM125 565v147h166v-147h-166zM390 565v147h167v-147h-167z" />
    <glyph glyph-name="eight" unicode="8" horiz-adv-x="706" 
d="M25 224c0 50 42 138 153 147c-104 4 -128 98 -128 138c0 180 215 199 303 199c120 0 301 -24 301 -204c0 -42 -38 -120 -119 -136c83 -2 146 -93 146 -144c0 -204 -212 -232 -328 -232c-97 0 -328 28 -328 232zM262 490c0 -30 24 -58 92 -58c57 0 92 8 92 58
s-34 73 -93 73c-46 0 -91 -21 -91 -73zM449 216c0 42 -29 81 -93 81c-60 0 -97 -28 -97 -81c0 -50 48 -70 95 -70c49 0 95 13 95 70z" />
    <glyph glyph-name="ampersand" unicode="&#x26;" horiz-adv-x="988" 
d="M677 0l-85 59c-60 -62 -162 -67 -239 -67c-97 0 -328 28 -328 232c0 45 34 122 123 142c-68 39 -98 93 -98 143c0 180 215 199 303 199c119 0 301 -24 301 -205c0 -61 -90 -130 -158 -148l74 -55c12 14 23 28 33 42h253c-41 -53 -84 -105 -132 -156l249 -186h-296z
M353 563c-36 0 -78 -21 -91 -52c26 -37 60 -63 98 -79c31 3 86 20 86 58c0 50 -34 73 -93 73zM354 146c31 0 61 5 78 23l-151 105c-14 -13 -22 -32 -22 -58c0 -50 48 -70 95 -70z" />
    <glyph glyph-name="eth" unicode="&#xf0;" horiz-adv-x="755" 
d="M292 495l-56 56l80 70c-35 9 -73 13 -112 13h-23l30 118c24 4 57 6 93 6c49 0 102 -4 139 -12l12 -3l81 71l56 -56l-57 -50c110 -65 195 -194 195 -345c0 -29 -3 -59 -10 -89c-40 -185 -189 -285 -380 -285c-18 0 -36 1 -54 3c-129 12 -261 109 -261 239
c0 36 10 74 33 114c50 88 132 121 216 121c77 0 156 -28 211 -69v16c0 80 -35 136 -90 173zM260 272c-6 -10 -9 -20 -9 -29c0 -26 24 -45 48 -57c20 -11 37 -15 53 -15c48 0 81 40 102 74c-30 33 -80 69 -126 69c-26 0 -50 -12 -68 -42z" />
    <glyph glyph-name="macron" unicode="&#xaf;" horiz-adv-x="510" 
d="M30 583v117h450v-117h-450z" />
    <glyph glyph-name="Cacute" unicode="&#x106;" horiz-adv-x="719" 
d="M694 193v-159c-59 -28 -204 -42 -277 -42c-214 0 -392 118 -392 357c0 234 175 361 392 361c65 0 210 -11 263 -32v-145c-41 8 -159 13 -192 13c-105 0 -188 -61 -188 -197c0 -130 72 -186 173 -186c44 0 164 10 221 30zM668 956l-165 -206h-135l98 206h202z" />
    <glyph glyph-name="Ndotaccent" unicode="&#x1e44;" horiz-adv-x="869" 
d="M521 0l-217 360v-360h-274v700h314l221 -367v367h274v-700h-318zM352 764v144h163v-144h-163z" />
    <glyph glyph-name="Mdotaccent" unicode="&#x1e40;" horiz-adv-x="1069" 
d="M765 0v304l-121 -304h-217l-123 309v-309h-274v700h324l181 -457l182 457h322v-700h-274zM454 732v144h163v-144h-163z" />
    <glyph glyph-name="ndotbelow" unicode="&#x1e47;" horiz-adv-x="755" 
d="M301 -209v144h163v-144h-163zM453 0v232c0 46 -26 72 -66 72c-37 0 -83 -31 -83 -73v-231h-274v500h274v-56c65 44 130 65 189 65c131 0 232 -100 232 -267v-242h-272z" />
    <glyph glyph-name="ygrave" unicode="&#x1ef3;" horiz-adv-x="679" 
d="M389 500h260v-531c-2 -63 -28 -112 -69 -148c-63 -56 -163 -81 -268 -81c-31 0 -63 2 -94 5c-44 4 -93 13 -135 25v158c60 -18 125 -32 190 -32c43 0 116 40 116 70v36c-37 -7 -79 -12 -117 -12c-148 0 -241 64 -241 260c0 7 -1 243 -1 250h253v-250c0 -36 8 -85 50 -85
c40 0 56 24 56 103v232zM286 557l-143 174h179l84 -174h-120z" />
    <glyph glyph-name="at" unicode="@" horiz-adv-x="797" 
d="M559 446l-31 -127c9 -33 24 -59 53 -59c11 0 24 4 40 13c38 21 55 65 55 114c0 59 -25 125 -64 163c-45 44 -107 65 -172 65c-67 0 -139 -22 -199 -66c-48 -35 -98 -118 -98 -206c0 -41 11 -84 39 -123c57 -82 154 -121 252 -121c57 0 114 13 164 39l113 -75
c-79 -47 -181 -76 -283 -76c-121 0 -243 40 -329 136c-50 55 -74 134 -74 214c0 108 44 219 129 287c72 57 181 89 285 89c82 0 162 -20 220 -64c69 -53 113 -152 113 -247c0 -89 -39 -174 -132 -215c-23 -10 -46 -15 -68 -15c-54 0 -100 30 -116 83
c-27 -18 -61 -31 -101 -31c-72 0 -128 35 -128 111c0 13 2 27 5 42c25 111 134 163 220 163c61 0 110 -26 110 -74c0 -6 -1 -13 -3 -20zM444 336c2 49 19 83 25 110c-7 1 -13 2 -20 2c-50 0 -101 -36 -114 -94c-1 -5 -2 -8 -2 -12c0 -21 16 -29 36 -29c25 0 57 12 75 23z
" />
  </font>
</defs>
</svg>
